Каменская / Сезон: 2 / Серии: 1-16 из 16 (Юрий Мороз) [2002, Детектив, WEBRip] 

Цитировать
Каменская-2
Год выпуска: 2002
Производство: Рекун-фильм
Жанр: Детектив
Продолжительность: 16 x 00:50:00
Субтитры: Нет
Режиссёр: Юрий Мороз
В ролях: Елена Яковлева, Сергей Никоненко, Андрей Ильин, Дмитрий Нагиев, Сергей Гармаш, Станислав Дужников, Евгений Меркурьев, Илья Шакунов, Виктория Исакова, Егор Бероев, Владимир Большов, Юрий Мороз, Анатолий Руденко, Александр Воробьёв, Александр Ревенко, Екатерина Галахова, Линда Табагари, Виталий Шаповалов, Борис Невзоров, Марина Могилевская, Сергей Быстрицкий, Светлана Никифорова, Михаил Петров, Юлия Рувинская, Луиза Мосендз, Дмитрий Мухамадеев, Владимир Стержаков, Сергей Новиков, Виталий Макаревич, Людмила Разумова, Елена Родак-Шкуратова, Денис Никифоров, Артем Назаров, Юлия Иванова (III), Максим Лагашкин, Валерий Дегтярь, Ирина Розанова, Андрей Панин, Дарья Мороз, Андрей Руденский, Александр Голобородько, Игорь Ясулович, Елена Морозова, Дмитрий Харатьян, Наташа Швец (II), Анна Штукатурова, Наталья Рогожкина, Августин Милованов, Татьяна Исаева, Алиса Признякова, Анатолий Кот, Максим Коропцов, Александр Арсентьев, Евгений Леонтьев, Тамара Миронова, Любовь Румянцева, Ольга Водчиц, Юрий Вутто, Наталья Чемодурова, Анжела Дайняк, Алла Казакова, Владимир Панков, Антон Давыдов, Галина Кухальская, Станислав Вилькин, Инна Дубок, Арно Упениекс, Янис Паукштелло, Рихард Рудакс, Борис Клюев
Описание: Экранизация романов Александры Марининой "Я умер вчера", "Украденный сон", "Мужские игры", "За все надо платить". Сотрудница уголовного розыска Анастасия Каменская умеет вычислить преступника по самым незначительным деталям его поступков, характера, психологии.
Реклама: Нет
Все раздачи сериала: Каменская-2
Сэмпл: http://multi-up.com/1142062
Качество: WEBRip
Формат: AVI
Видео кодек: XviD
Аудио кодек: MP3
Видео: 704x416, 720x416, 25 fps, XviD build 73, ~ 1400 kbps avg, 0.19 bit/pixel
Аудио: 48 kHz, MPEG Layer 3, 2 ch, ~128.00 kbps avg

MI

General
Complete name : Каменская-2\1. Украденный сон (1 сер.).avi
Format : AVI
Format/Info : Audio Video Interleave
File size : 550 MiB
Duration : 50 min
Overall bit rate : 1 533 kb/s
Writing application : VirtualDubMod 1.5.10.3 | www.virtualdub-fr.org || (build 2550/release)
Writing library : VirtualDubMod build 2550/release
Video
ID : 0
Format : MPEG-4 Visual
Format profile : Advanced Simple@L5
Format settings, BVOP : 1
Format settings, QPel : No
Format settings, GMC : No warppoints
Format settings, Matrix : Default (H.263)
Codec ID : XVID
Codec ID/Hint : XviD
Duration : 50 min
Bit rate : 1 395 kb/s
Width : 704 pixels
Height : 416 pixels
Display aspect ratio : 5:3
Frame rate : 25.000 FPS
Color space : YUV
Chroma subsampling : 4:2:0
Bit depth : 8 bits
Scan type : Progressive
Compression mode : Lossy
Bits/(Pixel*Frame) : 0.191
Stream size : 501 MiB (91%)
Writing library : XviD 73
Audio
ID : 1
Format : MPEG Audio
Format version : Version 1
Format profile : Layer 3
Codec ID : 55
Codec ID/Hint : MP3
Duration : 50 min
Bit rate mode : Constant
Bit rate : 128 kb/s
Channel(s) : 2 channels
Sampling rate : 48.0 kHz
Compression mode : Lossy
Stream size : 46.0 MiB (8%)
Alignment : Aligned on interleaves
Interleave, duration : 40 ms (1.00 video frame)
Interleave, preload duratio : 504 ms
Writing library : LAME3.99r
Encoding settings : -m s -V 4 -q 2 -lowpass 17 -b 128

Скриншоты

Вы не можете начинать темы
Вы не можете отвечать на сообщения
Вы не можете редактировать свои сообщения
Вы не можете удалять свои сообщения
Вы не можете голосовать в опросах
Вы не можете прикреплять файлы к сообщениям
Вы можете скачивать файлы
!ВНИМАНИЕ!

Сайт не предоставляет электронные версии произведений, а занимается лишь коллекционированием и каталогизацией ссылок, присылаемых и публикуемых на форуме нашими читателями. Если вы являетесь правообладателем какого-либо представленного материала и не желаете, чтобы ссылка на него находилась в нашем каталоге, свяжитесь с нами, и мы незамедлительно удалим ее. Файлы для обмена на трекере предоставлены пользователями сайта, и администрация не несет ответственности за их содержание. Просьба не заливать файлы, защищенные авторскими правами, а также файлы нелегального содержания!

Искали программы, игры, дополнения, музыка mp3, аниме, аудио книги, журналы? Добро пожаловать на свободный торрент трекер Torrents, у нас можно скачать бесплатно, без смс и регистрации и прочих ограничений лучшие, отборные сборки программ, игр. Скачать торрентом не составит труда даже не опытному пользователю. Раздачи ежедневно обновляются, только лучшие и качественные раздачи, подробные описания и скриншоты. Огромная коллекция программ для работы со звуком, графикой, дизайном, а так же множество плагинов и инструментов к ним с подробной инструкцией и рекомендациями. Прошивки для навигаторов, карты. Разнообразные игры, для Windows, Linux. В коллекцие есть и старые игры любых жанров, Rpg, Action, Shooter, strategy Множество дополнений, модификаций, сценариев для популярных игр в жанре экш, рпг, гонки, стратегии, логические игры. Множество аддонов и сценариев для Microsoft Flight Simulator Большая коллекция книг, учебников. Если нет возможности купить печатное издание - смело скачивайте цифровую версию книги или, быть может, журнала. Не любите читать - можно загрузить бесплатно аудикнигу. Для веб дизайнеров и программистов так же найдется множество специализированного софта, таких как: редакторы с подсветкой, среды программирования, компоненты, системы управления базами данных, разнообразные скрипты и шаблоны. Не так давно у нас появился материал для автолюбителей и владельцев мото - оригинальные и неоригинальные каталоги запчастей, книги и журналы по ремонту и обслуживанию, видеоуроки, статьи по чип тюнингу, прошивкам. Процедура получения контента элементарная, достаточно просто скачать торрент файл и добавить его в загрузку в вашем торрент клиенте. Если у вас нет специального торрент клиента, вы можете его скачать у нас.