Каменская / Сезоны: 1-6 / Серии: 1-84 из 84 (Юрий Мороз, Александр Аравин, Антон Сиверс, Марат Ким, Егор Анашкин) [1999-2011, детектив, DVDRip-AVC, WEBRip-AVC] 

Цитировать
Каменская
Год выпуска: 1999-2011
Производство: НТВ-Кино, Рекун-фильм, Racoon-Kino, Рекун-ТВ
Жанр: детектив
Продолжительность: 84 x ~ 00:47:00
Субтитры: Нет
Режиссёр: Юрий Мороз, Александр Аравин, Антон Сиверс, Марат Ким, Егор Анашкин
В ролях: Елена Яковлева, Сергей Никоненко, Сергей Гармаш, Дмитрий Нагиев, Андрей Ильин, Алексей Горбунов, Всеволод Шиловский, Андрей Панин, Борис Невзоров, Альгимантас Масюлис, Марина Могилевская, Алиса Богарт, Николай Чиндяйкин, Вия Артмане, Сергей Юшкевич, Станислав Дужников, Александр Тютин, Алексей Шевченков, Владислав Галкин, Михаил Ефремов, Александр Балуев, Геннадий Назаров, Дмитрий Харатьян, Наталья Рогожкина, Александр Носик, Виктор Вержбицкий, Ярослав Бойко, Владимир Ерёмин, Александр Яцко, Юлия Деллос, Любомирас Лауцявичюс, Илья Древнов, Наталия Антонова, Андрей Звягинцев, Михаил Горевой, Алла Балтер, Евгений Меркурьев, Илья Шакунов, Виктория Исакова, Егор Бероев, Владимир Большов, Юрий Мороз, Анатолий Руденко, Владимир Стержаков, Ирина Розанова, Дарья Мороз, Андрей Руденский, Игорь Ясулович, Наташа Швец, Анатолий Кот, Оксана Акиньшина, Виктор Раков, Владимир Вдовиченков, Алексей Макаров, Александр Феклистов, Евгения Брик, Эдуард Чекмазов, Александр Клюквин, Владимир Симонов, Дмитрий Назаров, Анна Банщикова, Регина Мянник, Отар Кушанашвили, Алексей Колган, Виталий Хаев, Константин Желдин, Анжелика Варум, Константин Милованов, Екатерина Климова, Олег Андреев, Артур Ваха, Сергей Перегудов, Мария Луговая, Илья Носков, Евгения Игумнова, Яков Шамшин, Дмитрий Поднозов, Екатерина Вилкова, Виталий Коваленко, Анатолий Петров, Юрий Ицков, Павел Баршак, Николай Козак, Анатолий Узденский, Валентин Смирнитский
Описание: Cериал «Каменская» - это первая экранизация популярных романов «русской Агаты Кристи» Александры Марининой. Главная героиня сериала - майор милиции Анастасия Каменская, за которой закрепилась слава прекрасного аналитика, - говорит на пяти языках и обожает свою работу. Она с готовностью берется за неразрешимые на первый взгляд дела и мастерски вычисляет преступников по самым незначительным деталям им поступков, характера, психологии. Настины способности в сочетании с профессионализмом двух других сотрудников уголовного розыска - дают прекрасные результаты раскрываемости преступлений.
Доп. информация
Исходник для первого сезона - 4хDVD5 от ДВД Магия. Мне он понравился больше, картинка там не такая рыхлая как в других DVD.
Так как из всех эпизодов второго и третьего сезонов официально на DVD выходил только один (Седьмая жертва), остальные эпизоды этих сезонов выложены в формате WEBRip. От предыдущих раздач они отличаются более лучшим качеством и удлинённым хронометражом (каждая серия длиннее на 1-2 минуты).
Реклама: Нет
Все раздачи сериала: Каменская
Сэмпл: http://multi-up.com/1161291
Качество: DVDRip-AVC, WEBRip-AVC
Формат: MKV
Видео кодек: H.264
Аудио кодек: AC3
Видео: MPEG-4 (AVC), ~692x444@736x444, ~1800 kbps, ~0.23 bit/pixel (Каменская-1)
Видео: MPEG-4 (AVC), 984x576, ~1800 kbps, ~0.13 bit/pixel (Каменская-2)
Видео: MPEG-4 (AVC), 704x440, 996x576, 700x464@744x464, ~1800 kbps, ~0.13-0.23 bit/pixel (Каменская-3)
Видео: MPEG-4 (AVC), 716x456@764x456, ~1800 kbps, ~0.22 bit/pixel (Каменская-4)
Видео: MPEG-4 (AVC), 720x576@1024x576, 720x564@1024x564, ~1800 kbps, ~0.17 bit/pixel (Каменская-5)
Видео: MPEG-4 (AVC), 720x432@768x432, ~1800 kbps, ~0.23 bit/pixel (Каменская-6)
Аудио: AC3, 48.0 kHz, 2 ch, 192 Kbps (Каменская-1,2,3)
Аудио: AC3, 48.0 kHz, 6 ch, 448 Kbps (Каменская-4,5,6)

MI

Каменская-1

General
Unique ID : 188670972484114697552625545168693092286 (0x8DF0B52248B16CCEA928936FA629DFBE)
Complete name : \Каменская-1\1. Стечение обстоятельств (1 сер.).mkv
Format : Matroska
Format version : Version 2
File size : 741 MiB
Duration : 51 min 59 s
Overall bit rate : 1 994 kb/s
Encoded date : UTC 2017-06-03 12:26:10
Writing application : mkvmerge v7.8.0 ('River Man') 32bit built on Apr 3 2015 12:11:22
Writing library : libebml v1.3.1 + libmatroska v1.4.2
Video
ID : 1
Format : AVC
Format/Info : Advanced Video Codec
Format profile : High@L3
Format settings, CABAC : Yes
Format settings, ReFrames : 4 frames
Codec ID : V_MPEG4/ISO/AVC
Duration : 51 min 59 s
Bit rate : 1 800 kb/s
Width : 692 pixels
Height : 444 pixels
Display aspect ratio : 5:3
Frame rate mode : Constant
Frame rate : 25.000 FPS
Color space : YUV
Chroma subsampling : 4:2:0
Bit depth : 8 bits
Scan type : Progressive
Bits/(Pixel*Frame) : 0.234
Stream size : 655 MiB (88%)
Writing library : x264 core 146 r2538 121396c
Encoding settings : cabac=1 / ref=3 / deblock=1:0:0 / analyse=0x3:0x113 / me=umh / subme=7 / psy=1 / psy_rd=1.00:0.00 / mixed_ref=1 / me_range=16 / chroma_me=1 / trellis=1 / 8x8dct=1 / cqm=0 / deadzone=21,11 / fast_pskip=1 / chroma_qp_offset=-2 / threads=4 / lookahead_threads=1 / sliced_threads=0 / nr=0 / decimate=1 / interlaced=0 / bluray_compat=0 / stitchable=1 / constrained_intra=0 / bframes=3 / b_pyramid=2 / b_adapt=1 / b_bias=0 / direct=1 / weightb=1 / open_gop=0 / weightp=2 / keyint=250 / keyint_min=25 / scenecut=40 / intra_refresh=0 / rc_lookahead=40 / rc=2pass / mbtree=1 / bitrate=1800 / ratetol=1.0 / qcomp=0.60 / qpmin=0 / qpmax=69 / qpstep=4 / cplxblur=20.0 / qblur=0.5 / ip_ratio=1.40 / aq=1:1.00
Default : Yes
Forced : No
Audio
ID : 2
Format : AC-3
Format/Info : Audio Coding 3
Format settings, Endianness : Big
Codec ID : A_AC3
Duration : 51 min 59 s
Bit rate mode : Constant
Bit rate : 192 kb/s
Channel(s) : 2 channels
Channel positions : Front: L R
Sampling rate : 48.0 kHz
Frame rate : 31.250 FPS (1536 spf)
Bit depth : 16 bits
Compression mode : Lossy
Stream size : 71.4 MiB (10%)
Service kind : Complete Main
Default : Yes
Forced : No

Каменская-2

General
Unique ID : 210649719698226574256048940063819353332 (0x9E79A9090D16A3409F4740478FFCCCF4)
Complete name : \Каменская-2\1. Украденный сон (1 сер.).mkv
Format : Matroska
Format version : Version 2
File size : 716 MiB
Duration : 50 min 12 s
Overall bit rate : 1 994 kb/s
Encoded date : UTC 2017-06-06 06:09:34
Writing application : mkvmerge v7.8.0 ('River Man') 32bit built on Apr 3 2015 12:11:22
Writing library : libebml v1.3.1 + libmatroska v1.4.2
Video
ID : 1
Format : AVC
Format/Info : Advanced Video Codec
Format profile : High@L3.1
Format settings, CABAC : Yes
Format settings, ReFrames : 4 frames
Codec ID : V_MPEG4/ISO/AVC
Duration : 50 min 12 s
Bit rate : 1 800 kb/s
Width : 984 pixels
Height : 576 pixels
Display aspect ratio : 1.708
Frame rate mode : Constant
Frame rate : 25.000 FPS
Color space : YUV
Chroma subsampling : 4:2:0
Bit depth : 8 bits
Scan type : Progressive
Bits/(Pixel*Frame) : 0.127
Stream size : 633 MiB (88%)
Writing library : x264 core 146 r2538 121396c
Encoding settings : cabac=1 / ref=3 / deblock=1:0:0 / analyse=0x3:0x113 / me=umh / subme=7 / psy=1 / psy_rd=1.00:0.00 / mixed_ref=1 / me_range=16 / chroma_me=1 / trellis=1 / 8x8dct=1 / cqm=0 / deadzone=21,11 / fast_pskip=1 / chroma_qp_offset=-2 / threads=4 / lookahead_threads=1 / sliced_threads=0 / nr=0 / decimate=1 / interlaced=0 / bluray_compat=0 / stitchable=1 / constrained_intra=0 / bframes=3 / b_pyramid=2 / b_adapt=1 / b_bias=0 / direct=1 / weightb=1 / open_gop=0 / weightp=2 / keyint=250 / keyint_min=25 / scenecut=40 / intra_refresh=0 / rc_lookahead=40 / rc=2pass / mbtree=1 / bitrate=1800 / ratetol=1.0 / qcomp=0.60 / qpmin=0 / qpmax=69 / qpstep=4 / cplxblur=20.0 / qblur=0.5 / ip_ratio=1.40 / aq=1:1.00
Default : Yes
Forced : No
Audio
ID : 2
Format : AC-3
Format/Info : Audio Coding 3
Format settings, Endianness : Big
Codec ID : A_AC3
Duration : 50 min 12 s
Bit rate mode : Constant
Bit rate : 192 kb/s
Channel(s) : 2 channels
Channel positions : Front: L R
Sampling rate : 48.0 kHz
Frame rate : 31.250 FPS (1536 spf)
Bit depth : 16 bits
Compression mode : Lossy
Stream size : 68.9 MiB (10%)
Service kind : Complete Main
Default : Yes
Forced : No

Каменская-3

General
Unique ID : 223202836950064494160346448688562023252 (0xA7EB4D8011B7E85C8D27CC958DE3AB54)
Complete name : \Каменская-3\1. Иллюзия греха (1 сер.).mkv
Format : Matroska
Format version : Version 2
File size : 620 MiB
Duration : 43 min 29 s
Overall bit rate : 1 994 kb/s
Encoded date : UTC 2017-05-29 09:13:46
Writing application : mkvmerge v7.8.0 ('River Man') 32bit built on Apr 3 2015 12:11:22
Writing library : libebml v1.3.1 + libmatroska v1.4.2
Video
ID : 1
Format : AVC
Format/Info : Advanced Video Codec
Format profile : High@L3
Format settings, CABAC : Yes
Format settings, ReFrames : 4 frames
Codec ID : V_MPEG4/ISO/AVC
Duration : 43 min 29 s
Bit rate : 1 800 kb/s
Width : 704 pixels
Height : 440 pixels
Display aspect ratio : 16:10
Frame rate mode : Constant
Frame rate : 25.000 FPS
Color space : YUV
Chroma subsampling : 4:2:0
Bit depth : 8 bits
Scan type : Progressive
Bits/(Pixel*Frame) : 0.232
Stream size : 548 MiB (88%)
Writing library : x264 core 146 r2538 121396c
Encoding settings : cabac=1 / ref=1 / deblock=1:0:0 / analyse=0x3:0x3 / me=umh / subme=7 / psy=1 / psy_rd=1.00:0.00 / mixed_ref=0 / me_range=16 / chroma_me=1 / trellis=0 / 8x8dct=1 / cqm=0 / deadzone=21,11 / fast_pskip=1 / chroma_qp_offset=-2 / threads=4 / lookahead_threads=1 / sliced_threads=0 / nr=0 / decimate=1 / interlaced=0 / bluray_compat=0 / stitchable=1 / constrained_intra=0 / bframes=3 / b_pyramid=2 / b_adapt=1 / b_bias=0 / direct=3 / weightb=1 / open_gop=0 / weightp=1 / keyint=250 / keyint_min=25 / scenecut=40 / intra_refresh=0 / rc=2pass / mbtree=0 / bitrate=1800 / ratetol=1.0 / qcomp=0.60 / qpmin=0 / qpmax=69 / qpstep=4 / cplxblur=20.0 / qblur=0.5 / ip_ratio=1.40 / pb_ratio=1.30 / aq=1:1.00
Default : Yes
Forced : No
Audio
ID : 2
Format : AC-3
Format/Info : Audio Coding 3
Format settings, Endianness : Big
Codec ID : A_AC3
Duration : 43 min 29 s
Bit rate mode : Constant
Bit rate : 192 kb/s
Channel(s) : 2 channels
Channel positions : Front: L R
Sampling rate : 48.0 kHz
Frame rate : 31.250 FPS (1536 spf)
Bit depth : 16 bits
Compression mode : Lossy
Stream size : 59.7 MiB (10%)
Service kind : Complete Main
Default : Yes
Forced : No

Каменская-4

General
Unique ID : 187987229530870190820095765771049020439 (0x8D6D0600EC63D15A8F925B383A14AC17)
Complete name : \Каменская-4\1. Личное дело (1 сер.).mkv
Format : Matroska
Format version : Version 2
File size : 710 MiB
Duration : 44 min 7 s
Overall bit rate : 2 250 kb/s
Encoded date : UTC 2017-06-05 05:43:29
Writing application : mkvmerge v7.8.0 ('River Man') 32bit built on Apr 3 2015 12:11:22
Writing library : libebml v1.3.1 + libmatroska v1.4.2
Video
ID : 1
Format : AVC
Format/Info : Advanced Video Codec
Format profile : High@L3
Format settings, CABAC : Yes
Format settings, ReFrames : 4 frames
Codec ID : V_MPEG4/ISO/AVC
Duration : 44 min 7 s
Bit rate : 1 800 kb/s
Width : 716 pixels
Height : 456 pixels
Display aspect ratio : 5:3
Frame rate mode : Constant
Frame rate : 25.000 FPS
Color space : YUV
Chroma subsampling : 4:2:0
Bit depth : 8 bits
Scan type : Progressive
Bits/(Pixel*Frame) : 0.221
Stream size : 554 MiB (78%)
Writing library : x264 core 146 r2538 121396c
Encoding settings : cabac=1 / ref=3 / deblock=1:0:0 / analyse=0x3:0x113 / me=umh / subme=7 / psy=1 / psy_rd=1.00:0.00 / mixed_ref=1 / me_range=16 / chroma_me=1 / trellis=1 / 8x8dct=1 / cqm=0 / deadzone=21,11 / fast_pskip=1 / chroma_qp_offset=-2 / threads=4 / lookahead_threads=1 / sliced_threads=0 / nr=0 / decimate=1 / interlaced=0 / bluray_compat=0 / stitchable=1 / constrained_intra=0 / bframes=3 / b_pyramid=2 / b_adapt=1 / b_bias=0 / direct=1 / weightb=1 / open_gop=0 / weightp=2 / keyint=250 / keyint_min=25 / scenecut=40 / intra_refresh=0 / rc_lookahead=40 / rc=2pass / mbtree=1 / bitrate=1800 / ratetol=1.0 / qcomp=0.60 / qpmin=0 / qpmax=69 / qpstep=4 / cplxblur=20.0 / qblur=0.5 / ip_ratio=1.40 / aq=1:1.00
Default : Yes
Forced : No
Audio
ID : 2
Format : AC-3
Format/Info : Audio Coding 3
Format settings, Endianness : Big
Codec ID : A_AC3
Duration : 44 min 7 s
Bit rate mode : Constant
Bit rate : 448 kb/s
Channel(s) : 6 channels
Channel positions : Front: L C R, Side: L R, LFE
Sampling rate : 48.0 kHz
Frame rate : 31.250 FPS (1536 spf)
Bit depth : 16 bits
Compression mode : Lossy
Stream size : 141 MiB (20%)
Service kind : Complete Main
Default : Yes
Forced : No

Каменская-5

General
Unique ID : 195741442844551612735650404766114283141 (0x93426E3CAA79A8ADB501FE5D0A127E85)
Complete name : \Каменская-5\1. Реквием (1 сер.).mkv
Format : Matroska
Format version : Version 2
File size : 710 MiB
Duration : 44 min 7 s
Overall bit rate : 2 248 kb/s
Encoded date : UTC 2017-06-10 14:45:14
Writing application : mkvmerge v7.8.0 ('River Man') 32bit built on Apr 3 2015 12:11:22
Writing library : libebml v1.3.1 + libmatroska v1.4.2
Video
ID : 1
Format : AVC
Format/Info : Advanced Video Codec
Format profile : High@L3
Format settings, CABAC : Yes
Format settings, ReFrames : 4 frames
Codec ID : V_MPEG4/ISO/AVC
Duration : 44 min 7 s
Bit rate : 1 800 kb/s
Width : 720 pixels
Height : 576 pixels
Display aspect ratio : 16:9
Frame rate mode : Constant
Frame rate : 25.000 FPS
Standard : PAL
Color space : YUV
Chroma subsampling : 4:2:0
Bit depth : 8 bits
Scan type : Progressive
Bits/(Pixel*Frame) : 0.174
Stream size : 554 MiB (78%)
Writing library : x264 core 146 r2538 121396c
Encoding settings : cabac=1 / ref=3 / deblock=1:0:0 / analyse=0x3:0x113 / me=umh / subme=7 / psy=1 / psy_rd=1.00:0.00 / mixed_ref=1 / me_range=16 / chroma_me=1 / trellis=1 / 8x8dct=1 / cqm=0 / deadzone=21,11 / fast_pskip=1 / chroma_qp_offset=-2 / threads=4 / lookahead_threads=1 / sliced_threads=0 / nr=0 / decimate=1 / interlaced=0 / bluray_compat=0 / stitchable=1 / constrained_intra=0 / bframes=3 / b_pyramid=2 / b_adapt=1 / b_bias=0 / direct=1 / weightb=1 / open_gop=0 / weightp=2 / keyint=250 / keyint_min=25 / scenecut=40 / intra_refresh=0 / rc_lookahead=40 / rc=2pass / mbtree=1 / bitrate=1800 / ratetol=1.0 / qcomp=0.60 / qpmin=0 / qpmax=69 / qpstep=4 / cplxblur=20.0 / qblur=0.5 / ip_ratio=1.40 / aq=1:1.00
Default : Yes
Forced : No
Audio
ID : 2
Format : AC-3
Format/Info : Audio Coding 3
Format settings, Endianness : Big
Codec ID : A_AC3
Duration : 44 min 7 s
Bit rate mode : Constant
Bit rate : 448 kb/s
Channel(s) : 6 channels
Channel positions : Front: L C R, Side: L R, LFE
Sampling rate : 48.0 kHz
Frame rate : 31.250 FPS (1536 spf)
Bit depth : 16 bits
Compression mode : Lossy
Stream size : 141 MiB (20%)
Service kind : Complete Main
Default : Yes
Forced : No

Каменская-6

General
Unique ID : 188956263923277202807805282655428281754 (0x8E27A7167DBC003E86EB4C3CC012059A)
Complete name : \Каменская-6\1. Вспомнить - нельзя (1 сер.).mkv
Format : Matroska
Format version : Version 2
File size : 708 MiB
Duration : 44 min 0 s
Overall bit rate : 2 249 kb/s
Encoded date : UTC 2017-06-14 12:00:40
Writing application : mkvmerge v7.8.0 ('River Man') 32bit built on Apr 3 2015 12:11:22
Writing library : libebml v1.3.1 + libmatroska v1.4.2
Video
ID : 1
Format : AVC
Format/Info : Advanced Video Codec
Format profile : High@L3
Format settings, CABAC : Yes
Format settings, ReFrames : 4 frames
Codec ID : V_MPEG4/ISO/AVC
Duration : 44 min 0 s
Bit rate : 1 800 kb/s
Width : 720 pixels
Height : 432 pixels
Display aspect ratio : 16:9
Frame rate mode : Constant
Frame rate : 25.000 FPS
Color space : YUV
Chroma subsampling : 4:2:0
Bit depth : 8 bits
Scan type : Progressive
Bits/(Pixel*Frame) : 0.231
Stream size : 553 MiB (78%)
Writing library : x264 core 146 r2538 121396c
Encoding settings : cabac=1 / ref=3 / deblock=1:0:0 / analyse=0x3:0x113 / me=umh / subme=7 / psy=1 / psy_rd=1.00:0.00 / mixed_ref=1 / me_range=16 / chroma_me=1 / trellis=1 / 8x8dct=1 / cqm=0 / deadzone=21,11 / fast_pskip=1 / chroma_qp_offset=-2 / threads=4 / lookahead_threads=1 / sliced_threads=0 / nr=0 / decimate=1 / interlaced=0 / bluray_compat=0 / stitchable=1 / constrained_intra=0 / bframes=3 / b_pyramid=2 / b_adapt=1 / b_bias=0 / direct=1 / weightb=1 / open_gop=0 / weightp=2 / keyint=250 / keyint_min=25 / scenecut=40 / intra_refresh=0 / rc_lookahead=40 / rc=2pass / mbtree=1 / bitrate=1800 / ratetol=1.0 / qcomp=0.60 / qpmin=0 / qpmax=69 / qpstep=4 / cplxblur=20.0 / qblur=0.5 / ip_ratio=1.40 / aq=1:1.00
Default : Yes
Forced : No
Audio
ID : 2
Format : AC-3
Format/Info : Audio Coding 3
Format settings, Endianness : Big
Codec ID : A_AC3
Duration : 44 min 0 s
Bit rate mode : Constant
Bit rate : 448 kb/s
Channel(s) : 6 channels
Channel positions : Front: L C R, Side: L R, LFE
Sampling rate : 48.0 kHz
Frame rate : 31.250 FPS (1536 spf)
Bit depth : 16 bits
Compression mode : Lossy
Stream size : 141 MiB (20%)
Service kind : Complete Main
Default : Yes
Forced : No

Скриншоты

Каменская-1

Каменская-2

Каменская-3

Каменская-4

Каменская-5

Каменская-6

Вы не можете начинать темы
Вы не можете отвечать на сообщения
Вы не можете редактировать свои сообщения
Вы не можете удалять свои сообщения
Вы не можете голосовать в опросах
Вы не можете прикреплять файлы к сообщениям
Вы можете скачивать файлы
!ВНИМАНИЕ!

Сайт не предоставляет электронные версии произведений, а занимается лишь коллекционированием и каталогизацией ссылок, присылаемых и публикуемых на форуме нашими читателями. Если вы являетесь правообладателем какого-либо представленного материала и не желаете, чтобы ссылка на него находилась в нашем каталоге, свяжитесь с нами, и мы незамедлительно удалим ее. Файлы для обмена на трекере предоставлены пользователями сайта, и администрация не несет ответственности за их содержание. Просьба не заливать файлы, защищенные авторскими правами, а также файлы нелегального содержания!

Искали программы, игры, дополнения, музыка mp3, аниме, аудио книги, журналы? Добро пожаловать на свободный торрент трекер Torrents, у нас можно скачать бесплатно, без смс и регистрации и прочих ограничений лучшие, отборные сборки программ, игр. Скачать торрентом не составит труда даже не опытному пользователю. Раздачи ежедневно обновляются, только лучшие и качественные раздачи, подробные описания и скриншоты. Огромная коллекция программ для работы со звуком, графикой, дизайном, а так же множество плагинов и инструментов к ним с подробной инструкцией и рекомендациями. Прошивки для навигаторов, карты. Разнообразные игры, для Windows, Linux. В коллекцие есть и старые игры любых жанров, Rpg, Action, Shooter, strategy Множество дополнений, модификаций, сценариев для популярных игр в жанре экш, рпг, гонки, стратегии, логические игры. Множество аддонов и сценариев для Microsoft Flight Simulator Большая коллекция книг, учебников. Если нет возможности купить печатное издание - смело скачивайте цифровую версию книги или, быть может, журнала. Не любите читать - можно загрузить бесплатно аудикнигу. Для веб дизайнеров и программистов так же найдется множество специализированного софта, таких как: редакторы с подсветкой, среды программирования, компоненты, системы управления базами данных, разнообразные скрипты и шаблоны. Не так давно у нас появился материал для автолюбителей и владельцев мото - оригинальные и неоригинальные каталоги запчастей, книги и журналы по ремонту и обслуживанию, видеоуроки, статьи по чип тюнингу, прошивкам. Процедура получения контента элементарная, достаточно просто скачать торрент файл и добавить его в загрузку в вашем торрент клиенте. Если у вас нет специального торрент клиента, вы можете его скачать у нас.